#TITLE:Time To Air;
#SUBTITLE:;
#ARTIST:Seiryu;
#TITLETRANSLIT:;
#SUBTITLETRANSLIT:;
#ARTISTTRANSLIT:;
#CREDIT:;
#BANNER:bn.jpg;
#BACKGROUND:bg.jpg;
#LYRICSPATH:;
#CDTITLE:timetoair.png;
#MUSIC:Time to Air.mp3;
#OFFSET:-0.100;
#SAMPLESTART:81.280;
#SAMPLELENGTH:11.980;
#SELECTABLE:YES;
#DISPLAYBPM:191.000;
#BPMS:0.000=191.000,12.000=382.000,12.375=95.500,12.563=191.000,25.000=381.998,28.000=191.000,61.000=381.999,64.000=191.000,156.000=382.000,156.500=95.500,156.750=382.000,157.250=95.500,157.500=382.000,157.813=95.500,157.875=95.500,158.000=382.000,158.313=95.500,158.500=382.000,158.813=95.500,159.000=382.000,159.500=191.000;
#STOPS:25.000=0.080
,25.500=0.080
,26.000=0.080
,26.500=0.080
,27.000=0.080
,27.500=0.080
,61.000=0.080
,61.500=0.080
,62.000=0.080
,62.500=0.080
,63.000=0.080
,63.500=0.080
,159.000=0.040
;
#BGCHANGES:;
// cache tags:
#FIRSTBEAT:0.000;
#LASTBEAT:368.000;
#SONGFILENAME:Songs/Music V.I.P ^_^/Time To Air/Time to air.sm;
#HASMUSIC:1;
#HASBANNER:1;
#MUSICLENGTH:118.029;
// end cache tags

//---------------dance-single - ----------------
#NOTES:
     dance-single:
     :
     Hard:
     18:
     1.000,1.000,1.000,0.076,0.534,816.000,377.000,9.000,1.000,83.000:
1100
0000
0010
0000
1001
0000
1000
0010
0100
0000
0001
0000
1100
0000
0100
0010
,
1000
0000
0100
0000
0110
0000
0001
0010
0010
0000
0100
0010
1000
0000
0100
0000
,
0011
0000
1000
0000
1100
0000
0010
0000
0101
1000
1000
0000
1000
0000
1000
0100
,
0001
0000
1010
0010
0110
0001
1010
1001
,
1110
0000
0001
0000
1010
0000
0001
0010
0100
0000
0001
0000
1100
0000
0100
1000
,
0010
0000
0100
0000
0110
0000
1000
0100
0100
0000
0010
0100
0001
0000
0100
0000
,
0011
0000
0000
0000
1000
0000
0000
0010
0001
0000
0000
0000
0001
0000
0000
0000
0001
0000
0000
0000
0001
0000
0000
0000
0001
0000
0000
0000
0001
0000
0000
0000
,
0001
000M
0000
0000
0000
0000
0000
0000
,
1110
0010
0101
1000
1010
0001
1010
0100
,
1100
0010
0101
0001
1010
0010
0101
1000
,
0111
0100
1010
0001
1100
0001
0110
0100
,
1001
1000
0101
0001
1010
0100
1100
0110
,
0111
0100
1010
0001
1010
0100
1010
0001
,
0110
1000
0101
1000
0111
0010
0101
1000
,
1100
0110
0011
0110
1001
1010
0101
0110
,
0011
0000
0000
0000
1000
0000
0000
0001
0010
0000
0000
0000
0010
0000
0000
0000
0010
0000
0000
0000
0010
0000
0000
0000
0010
0000
0000
0000
0010
0000
0000
0000
,
1111
1100
0110
0011
0110
0100
1010
0001
,
1010
0100
1010
0001
0110
1100
0110
0011
,
1010
0001
1010
0100
0101
1000
0101
0010
,
1100
0000
1000
0000
0101
0000
0010
0000
1100
0000
0110
0000
0011
0000
0101
0010
,
1001
1010
1100
0110
0011
0010
0101
1000
,
1101
0000
0010
0000
0011
0000
0100
0000
1010
0000
0010
0000
0101
0000
0001
0010
,
1100
0000
0010
0000
0101
0000
1000
0100
0011
0000
0010
0100
1001
0000
0100
0010
,
1001
0000
0100
0010
1100
0000
0010
0001
0110
0000
1100
0000
0110
0000
0011
0000
,
0011
1000
0001
0010
0001
0000
0001
0000
0011
0100
0010
0000
0010
0100
0010
0001
,
1010
0000
0100
0000
1010
0000
0001
0000
0100
0010
1000
0001
0010
0100
0010
0000
,
1100
0000
0010
0100
0011
0000
0101
0000
0001
0010
0001
0100
0010
0000
0100
0000
,
0010
0001
0010
0000
0110
0000
1000
0000
0100
0001
0010
0000
0101
0000
1000
0100
,
0011
1000
0001
0010
0101
0000
0010
0000
1000
0000
0100
0000
0010
0100
0010
0001
,
1010
0000
0100
0000
1010
0000
0001
0000
0011
0100
1000
0000
1001
0100
0010
0000
,
1100
0001
0010
0000
0110
0000
1100
0000
0011
0000
0010
0001
1010
0100
0001
0010
,
1101
0000
0010
0100
0011
0000
0000
0000
0110
0000
0001
0000
0001
0000
0001
0001
,
1110
1100
0011
0110
1100
0100
1010
0001
,
1010
0100
1010
0001
0101
0010
0011
0110
,
1100
0110
1001
0101
0011
0100
1010
1000
,
1100
0000
0110
0000
1100
0000
0001
0000
0101
0000
1000
0000
1010
0000
1000
0100
,
0011
0110
1100
0011
1100
0100
1010
0001
,
1101
0000
0110
0000
1001
0000
0001
0000
0101
0000
0010
0000
1100
0000
0100
0010
,
1001
0000
1010
0000
0101
0000
0010
0001
1100
0000
1000
0001
0110
0000
0010
0100
,
1001
0000
0000
1110
0000
0000
0111
0000
1110
0000
1011
0000
0111
0000
0010
0010
,
1101
1001
1010
1100
0110
0011
0110
0101
,
1010
1001
0101
0110
1100
0110
1011
1010
,
1101
0011
0110
1100
0011
1010
0101
1010
,
1001
0000
0101
0000
1011
0000
0110
0000
0111
0000
1100
0000
0110
0000
0001
0001
,
1110
0000
0011
0000
1010
0000
0101
0000
1000
0010
1000
0010
0100
0001
0100
0001
,
1110
0000
0000
0000
0011
0000
0000
0000
1100
0000
0000
0000
0110
0000
0000
0000
0100
0000
0010
0000
1000
0000
0010
0000
0100
0000
0001
0000
0100
0000
0010
0001
,
1100
1000
0010
0100
0010
1000
0001
0100
0011
0100
0001
1000
0011
0100
1010
0001
,
1110
0001
0010
0100
1000
0100
0010
0001
,
0020
0000
0000
0000
0000
0000
0000
0000
0000
0230
0000
0000
0000
0000
0000
0000
,
0000
0302
0000
0000
0000
0000
0000
0000
0000
2003
0000
0000
0000
0000
0000
0000
,
0000
3200
0000
0000
0000
0000
0000
0000
0000
0320
0000
0000
0000
0000
0000
0000
,
0000
0032
0000
0000
0000
0000
0000
0000
0000
0203
0000
0000
0000
0000
0000
0000
,
1300
1000
0100
0010
0001
0001
0010
0100
,
1000
1000
0100
0010
0100
1000
0100
0100
,
0010
0001
0010
0100
0100
1000
0001
0010
,
0100
1000
0001
0010
0100
1000
0100
0010
,
1101
0010
0100
1000
0001
0100
0010
0100
,
1000
1000
0100
0001
0100
0010
0001
1000
,
1011
1000
0100
0010
0100
1000
0001
0100
,
0010
1000
0001
0100
0010
0100
1000
0100
,
0111
1000
0010
0100
0001
0100
0010
1000
0001
0100
1000
0001
0100
0010
1000
0010
,
1101
0001
0100
0010
1000
0001
0100
0010
1000
0001
1000
0010
0100
0001
0100
0010
,
1101
0010
0100
1000
0101
0010
1000
0001
1110
0001
0100
0001
1010
0100
0010
0001
,
1110
0000
0000
0000
0110
0000
0000
0101
1010
0000
0011
0000
0011
0000
0000
0000
,
1011
1101
0111
1110
0111
0001
0100
0010
,
1101
0001
1010
1000
1100
0010
0101
1000
,
0101
1000
0110
0010
0101
1000
0101
1010
,
1011
1000
0101
0001
0110
1000
0101
0010
,
1100
0000
1000
0000
0101
0000
0010
0000
1100
0000
0100
0000
1010
0000
0010
0010
,
1101
1000
1010
0001
0110
0010
1010
1000
,
1101
0000
0010
0000
0101
0000
0010
0000
0110
0000
0100
0000
1010
0000
0001
0010
,
1100
0000
0010
0000
1001
0000
0010
0100
1001
0000
1000
0100
0011
0000
0100
0010
,
1100
0000
0000
0111
0000
0000
1110
0000
0111
0000
1110
0000
0111
0000
1110
0000
,
1101
1001
1010
1100
0110
0011
0110
0101
,
1010
1001
0101
0110
1100
0110
1011
1010
,
1101
0011
0110
1100
0011
1010
0101
1010
,
1001
0000
0101
0000
1011
0000
0110
0000
0111
0000
1100
0000
0110
0000
0001
0001
,
1110
0011
1010
0101
1010
1100
0110
0011
,
1110
1100
0110
0011
0110
1100
0101
1010
,
1101
0101
1001
0101
0111
1001
1101
1010
,
1100
1001
0101
1010
1100
0110
0011
0101
,
1010
1010
1010
1010
0101
0101
0101
0101
,
1100
1100
1100
1100
0011
0011
0011
0011
,
1101
1101
1101
1101
1011
1011
1011
1011
,
1110
1110
1110
1110
0111
0111
0111
0111
,
1011
0000
1011
0000
1011
0000
1011
0000
0001
0100
0010
1000
0001
0100
0001
0010
,
1101
0000
0000
0000
1101
0000
0000
0000
1101
0000
0000
0000
1101
0000
0000
0000
0110
0000
0001
0000
0100
0000
0001
0000
1100
0000
0010
0000
1000
0000
0010
0100
,
1001
0010
1000
0100
0011
1000
0011
0100
1010
0001
0100
1000
0110
0001
0010
0100
,
1011
1011
1011
1011
1001
1001
1001
1001
,
1002
1000
1000
1000
1000
1000
1000
1000
,
1000
1000
1000
1000
1000
1000
1000
1000
,
1000
1000
1000
1000
1000
1000
1000
1000
,
1003
0000
0000
0000
;
